Guilt S01E01 720p HDTV x264-KILLERS[rartv]

seeders: 23
leechers: 2
updated:
Added by z0n3212.58M in TV
Torrent verified. Downloaded 9,099 times.

DownloadFast Safe Anonymous
movies, software, shows...
  • View all Guilt episodes
  • Episode title: Pilot
  • Episode: S01E01
  • Air date: 13 June 2016
  • IMDb link: 5376862
  • TVmaze link: Guilt
  • Summary:

    Guilt is an edgy, soapy thriller that revolves around an American in London who becomes the prime suspect in the savage murder of her roommate. As the investigation unfolds, the viewers will question whether she's a naive, young girl whose poor decisions are being magnified under the ruthless glare of the British tabloids, or whether she's a sociopath who brutally murdered her friend. Even her own sister, who comes to London to defend her, will question how well she really knows her little sister as more and more ugly truths come out. This mystery will twist through all layers of London society — from a posh, but depraved, sex club all the way up to the Royal Family itself.

    Written by Rocky_45122.24K
Available in versions: 1080p720pHDTVx265
Guilt S01E01 720p HDTV x264-KILLERS[rartv] (Size: 1.14 GB)
  Guilt.S01E01.720p.HDTV.x264-KILLERS.mkv 1.14 GB
  rarbg.com.txt 34 bytes
  Guilt.S01E01.720p.HDTV.x264-KILLERS.nfo 10.61 KB

Description


http://rarbg.to
Guilt.S01E01.720p.HDTV.x264-KILLERS[rartv]

image
Screens :

image
Mediainfo :

Video
ID : 1
Format : AVC
Format/Info : Advanced Video Codec
Format profile : [email protected]
Format settings, CABAC : Yes
Format settings, ReFrames : 5 frames
Codec ID : V_MPEG4/ISO/AVC
Duration : 41mn 51s
Bit rate : 3 432 Kbps
Width : 1 280 pixels
Height : 720 pixels
Display aspect ratio : 16:9
Frame rate mode : Constant
Frame rate : 23.976 (24000/1001) fps
Color space : YUV
Chroma subsampling : 4:2:0
Bit depth : 8 bits
Scan type : Progressive
Bits/(Pixel*Frame) : 0.155
Stream size : 1.00 GiB (88%)
Writing library : x264 core 148 r2692 64f4e24
Encoding settings : cabac=1 / ref=5 / deblock=1:0:0 / analyse=0x3:0x113 / me=umh / subme=8 / psy=1 / psy_rd=1.00:0.00 / mixed_ref=1 / me_range=16 / chroma_me=1 / trellis=1 / 8x8dct=1 / cqm=0 / deadzone=21,11 / fast_pskip=1 / chroma_qp_offset=-2 / threads=22 / lookahead_threads=3 / sliced_threads=0 / nr=0 / decimate=1 / interlaced=0 / bluray_compat=0 / constrained_intra=0 / bframes=3 / b_pyramid=2 / b_adapt=2 / b_bias=0 / direct=3 / weightb=1 / open_gop=0 / weightp=2 / keyint=250 / keyint_min=23 / scenecut=40 / intra_refresh=0 / rc_lookahead=50 / rc=crf / mbtree=1 / crf=18.0 / qcomp=0.60 / qpmin=0 / qpmax=69 / qpstep=4 / ip_ratio=1.40 / aq=1:1.00
Default : Yes
Forced : No
Color range : Limited
Matrix coefficients : BT.709

Audio
ID : 2
Format : AC-3
Format/Info : Audio Coding 3
Mode extension : CM (complete main)
Format settings, Endianness : Big
Codec ID : A_AC3
Duration : 41mn 51s
Bit rate mode : Constant
Bit rate : 384 Kbps
Channel(s) : 6 channels
Channel positions : Front: L C R, Side: L R, LFE
Sampling rate : 48.0 KHz
Frame rate : 31.250 fps (1536 spf)
Compression mode : Lossy
Stream size : 115 MiB (10%)
Default : Yes
Forced : No

Related Torrents

torrent name size files age seed leech

Sharing Widget


Download torrent
1.14 GB
seeders:38
leechers:3
Guilt S01E01 720p HDTV x264-KILLERS[rartv]



To share this torrent use the code below and insert it into comments, status messages, forum posts or your signature.

Torrent: Guilt S01E01 720p HDTV x264-KILLERS[rartv]

Trackers

tracker name
udp://tracker.openbittorrent.com:80/announce
udp://tracker.publicbt.com:80/announce
udp://tracker.coppersurfer.tk:6969/announce
udp://9.rarbg.me:2710/announce
udp://glotorrents.pw:6969/announce
http://tracker.trackerfix.com/announce
udp://9.rarbg.to:2710/announce
udp://tracker.opentrackr.org:1337/announce
µTorrent compatible trackers list

Locations

name
KickassTorrents
Torrent hash: 22E641F203B8EA86E8F5F03DB25E1AD8CD6E8F65

All Comments

audio
9/10
video
9/10
please, leave only comments related to that torrent
Sign In

Thanks, keep up the great work.
Unfortunately, it's not my genre :(
audio: 9video: 9
Thanks
audio: 10video: 10
Good quality U/L, Thanks
audio: 10video: 9
Thank You!
Peach
audio: 10video: 10
Amazing quality and trusted uploader, many thanks for the effort :)

User Opinions

Eagle598218, queeroid6307, MaahAllves5820, -Gia-3311, lemon.effect3180, acidated1311, YenamMan1029, CookieThief1005, zombieflesheater448, neuromonkey78 ... And 61 more
Report a bug Open chat
Sitemap