Guilt S01E04 720p HDTV x264-FLEET[rartv]

seeders: 26
leechers: 8
updated:
Added by z0n3212.58M in TV
Torrent verified. Downloaded 1,889 times.

DownloadFast Safe Anonymous
movies, software, shows...
  • View all Guilt episodes
  • Episode title: Blood Ties
  • Episode: S01E04
  • Air date: 11 July 2016
  • IMDb link: 5376862
  • TVmaze link: Guilt
  • Summary:

    Guilt is an edgy, soapy thriller that revolves around an American in London who becomes the prime suspect in the savage murder of her roommate. As the investigation unfolds, the viewers will question whether she's a naive, young girl whose poor decisions are being magnified under the ruthless glare of the British tabloids, or whether she's a sociopath who brutally murdered her friend. Even her own sister, who comes to London to defend her, will question how well she really knows her little sister as more and more ugly truths come out. This mystery will twist through all layers of London society — from a posh, but depraved, sex club all the way up to the Royal Family itself.

    Written by Rocky_45122.18K
Available in versions: 1080p720pHDTVx265
Guilt S01E04 720p HDTV x264-FLEET[rartv] (Size: 1.12 GB)
  Guilt.S01E04.720p.HDTV.x264-FLEET.mkv 1.12 GB
  rarbg.com.txt 34 bytes
  Guilt.S01E04.720p.HDTV.x264-FLEET.nfo 696 bytes

Description


http://rarbg.to
Guilt.S01E04.720p.HDTV.x264-FLEET[rartv]

image
Screens :

image
Mediainfo :

Video
ID : 1
Format : AVC
Format/Info : Advanced Video Codec
Format profile : [email protected]
Format settings, CABAC : Yes
Format settings, ReFrames : 5 frames
Codec ID : V_MPEG4/ISO/AVC
Duration : 41mn 24s
Bit rate : 3 408 Kbps
Width : 1 280 pixels
Height : 720 pixels
Display aspect ratio : 16:9
Frame rate mode : Constant
Frame rate : 23.976 (24000/1001) fps
Color space : YUV
Chroma subsampling : 4:2:0
Bit depth : 8 bits
Scan type : Progressive
Bits/(Pixel*Frame) : 0.154
Stream size : 1 010 MiB (88%)
Writing library : x264 core 148 r2705 3f5ed56
Encoding settings : cabac=1 / ref=5 / deblock=1:-2:-2 / analyse=0x3:0x113 / me=umh / subme=8 / psy=1 / psy_rd=1.05:0.00 / mixed_ref=1 / me_range=16 / chroma_me=1 / trellis=1 / 8x8dct=1 / cqm=0 / deadzone=21,11 / fast_pskip=1 / chroma_qp_offset=-2 / threads=22 / lookahead_threads=3 / sliced_threads=0 / nr=0 / decimate=1 / interlaced=0 / bluray_compat=0 / constrained_intra=0 / bframes=3 / b_pyramid=2 / b_adapt=2 / b_bias=0 / direct=3 / weightb=1 / open_gop=0 / weightp=2 / keyint=250 / keyint_min=23 / scenecut=40 / intra_refresh=0 / rc_lookahead=50 / rc=crf / mbtree=1 / crf=18.0 / qcomp=0.60 / qpmin=0 / qpmax=69 / qpstep=4 / ip_ratio=1.40 / aq=1:0.70
Language : English
Default : Yes
Forced : No

Audio
ID : 2
Format : AC-3
Format/Info : Audio Coding 3
Mode extension : CM (complete main)
Format settings, Endianness : Big
Codec ID : A_AC3
Duration : 41mn 24s
Bit rate mode : Constant
Bit rate : 384 Kbps
Channel(s) : 6 channels
Channel positions : Front: L C R, Side: L R, LFE
Sampling rate : 48.0 KHz
Frame rate : 31.250 fps (1536 spf)
Compression mode : Lossy
Stream size : 114 MiB (10%)
Language : English
Default : Yes
Forced : No

Text
ID : 3
Format : UTF-8
Codec ID : S_TEXT/UTF8
Codec ID/Info : UTF-8 Plain Text
Title : English
Language : English
Default : No
Forced : No

Related Torrents

torrent name size files age seed leech

Sharing Widget


Download torrent
1.12 GB
seeders:26
leechers:8
Guilt S01E04 720p HDTV x264-FLEET[rartv]



To share this torrent use the code below and insert it into comments, status messages, forum posts or your signature.

Torrent: Guilt S01E04 720p HDTV x264-FLEET[rartv]

Trackers

tracker name
udp://tracker.openbittorrent.com:80/announce
udp://tracker.publicbt.com:80/announce
udp://tracker.coppersurfer.tk:6969/announce
udp://9.rarbg.me:2710/announce
udp://p4p.arenabg.com:1337/announce
http://tracker.trackerfix.com/announce
udp://9.rarbg.to:2710/announce
udp://tracker.opentrackr.org:1337/announce
µTorrent compatible trackers list

Locations

name
KickassTorrents
Torrent hash: 49868C38DB338A9D647F87407DBE402597D0C81B

All Comments

audio
9/10
video
9/10
please, leave only comments related to that torrent
Sign In

audio: 9video: 9
Thank You!
Peach
audio: 10video: 10
Great quality and English subtitles.
Thank you very much.
I have 1 1920 by 1200 IPS monitor. Very nice but the difference between 720 and 1080 are minimal.....
I am not sure that is worth the extra MBs.....
audio: 9video: 9
Thanks for all the hard work that you do getting these torrents out as fast as you do. I hope others appreciate it as much as I do. I would have gave a ten but it is 720p not 1080p. If you download from this guy you know your getting quality.

Last edited by martinpalmer1, 4 days ago


User Opinions

Eat_A_Peach5296, dalswede4169, luffy812695, kasimir1882667, Obey2529, rembam1912, Carol531267, Finwe674, zlagen379, JockeW146 ... And 5 more
Report a bug Open chat
Sitemap