Kattumakkan [2016] Malayalam 700MB HDRip x264 AAC ZippyMovieZ ExCluSivE

seeders: 160
leechers: 32
updated:
Added by ch314.55K in Movies > Asian
Torrent verified. Downloaded 12,413 times.

DownloadFast Safe Anonymous
movies, software, shows...
Summary:

Madhavan is an ordinary man living in a village with his wife Gauthami and children Neethu and Rahul. An unexpected person came into their happy family life and very soon their happiness and family is destroyed by that person. Madhavan's was not the first family thus destroyed by that unknown person. But Madhavan is the first one who got ready to take his revenge upon that man. Madhavan had planned that man's murder and he executes it. But he not tried to escape from the punishment.

Written by thequeen8700
Available in versions: 720pHDRiP
Kattumakkan [2016] Malayalam 700MB HDRip x264 AAC ZippyMovieZ ExCluSivE (Size: 698.29 MB)
  Torrent Downloaded From ZippyMovieZ.CC.txt 1.72 KB
  ZippyMoviez.CC.mkv 2.93 MB
  [ZippyMovieZ.CC] Kattumakkan [2016] Malayalam 700MB HDRip x264 AAC ZippyMovieZ ExCluSivE.mkv 695.36 MB

Description


image

[img][/img]


SCREENSHOTS







Video Info


Video
ID                                       : 1
Format                                   : AVC
Format/Info                              : Advanced Video Codec
Format profile                           : [email protected]
Format settings, CABAC                   : Yes
Format settings, ReFrames                : 4 frames
Codec ID                                 : V_MPEG4/ISO/AVC
Duration                                 : 2h 3mn
Bit rate                                 : 659 Kbps
Width                                    : 720 pixels
Height                                   : 328 pixels
Display aspect ratio                     : 2.2:1
Frame rate mode                          : Constant
Frame rate                               : 24.000 fps
Color space                              : YUV
Chroma subsampling                       : 4:2:0
Bit depth                                : 8 bits
Scan type                                : Progressive
Bits/(Pixel*Frame)                       : 0.116
Stream size                              : 582 MiB (84%)


Audio
ID                                       : 2
Format                                   : AAC
Format/Info                              : Advanced Audio Codec
Format profile                           : LC
Codec ID                                 : A_AAC
Duration                                 : 2h 3mn
Bit rate                                 : 126 Kbps
Channel(s)                               : 2 channels
Channel positions                        : Front: L R
Sampling rate                            : 44.1 KHz
Frame rate                               : 43.066 fps (1024 spf)
Compression mode                         : Lossy
Stream size                              : 111 MiB (16%)
Language                                 : English
Default                                  : Yes
Forced                                   : No


~Extreme Seeding Started~

Please click 'Thanks' as a token of appreciation of our effort.

Related Torrents

torrent name size files age seed leech

Sharing Widget


Download torrent
698.29 MB
seeders:180
leechers:39
Kattumakkan [2016] Malayalam 700MB HDRip x264 AAC ZippyMovieZ ExCluSivE



To share this torrent use the code below and insert it into comments, status messages, forum posts or your signature.

Torrent: Kattumakkan [2016] Malayalam...64 AAC ZippyMovieZ ExCluSivE

Trackers

tracker name
udp://tracker.openbittorrent.com:80/announce
udp://tracker.coppersurfer.tk:6969/announce
udp://glotorrents.pw:6969/announce
http://explodie.org:6969/announce
udp://tracker.opentrackr.org:1337/announce
udp://zer0day.ch:1337/announce
µTorrent compatible trackers list

Locations

name
KickassTorrents
Torrent hash: 3125648A1DE71CBCB0E1E12CFC0480FF3DF41925

Top Comments

15
JohnCale6603
audio: 8video: 8
International Tholvi aanallo ithu

Last edited by JohnCale, 2 months ago

2
georgettan353
a/v 9
enna koduma sir ithu...dull

Last edited by georgettan, 2 months ago

All Comments

audio
8/10
video
8/10
please, leave only comments related to that torrent
Sign In

Ee padam irakkiyavaneyokke Kattumakkanu pidichu kodukkanm [:Qmad
audio: 9video: 9
thanks
anyone can provide the link for English subtitle for this movie; thanks in advance
[b
[/b
Ith direct cheythavante tholikkatti apaaram
Paratta padam
Show More All

User Opinions

Alex_Kid57.45K, Boxjelly27.32K, thequeen8700, orlandos6252, mmwmathew5307, sugali1984, Scorpion1089, itsajanrs930, tariktoon147, musthafaa20 ... And 46 more
shivubhai1158, slimshady6291658, FadilBrothers273, monuz206, sultan2111172, distus160, Demetrio.Pav127, Fusion360105, IndiaEternal102
Report a bug Open chat
Sitemap